abdul202

abdul202 supports this item

Supported

153 comments found.

Getting a 403 error.

403 error is Forbidden message you get for some issues and i think in this case you get becasue you didn’t gve soe directories thr right permissions
change folder permission to 777 for uploaded, log, converted_videos

Hey friend, your plugin is great. Do you have customization service? My request is like this: there is a folder on my server. In this folder there are a videoA, picture1, pic2, pic3 …, a music, a sound file, a title. The template is same all the time. For example, VideoA + pictures + music + sound + title. What I need is just ” one click” to make this video. I don’t care about the perfect editing. Just add them together to upload to YouTube. Can you make a customization like this function? Thanks.

unfortunately i don’t have free time for customization
you can find good programmer to what you want for reasonable low fees at this website
http://bit.ly/1ac7Ksc
many just post your project and you will get many offers
Best Regards

Thank you for your information.

Hi! I am very interested in your script. Can it convert .jpg (or any image) to .mp4; Or can it convert .mp3 to .mp4? Thanks!!

The script supports output Videos formats: mp3, ogg, webm, flv, mp4, avi, wmv
it doesn’t support image formats

if have any type space or carecter then not converted http://s23.postimg.org/pipqlvpcr/screenshot_259.jpg

hello,
thank you for your feed back i will fix this soon and i will update the files here

After update i’m buy a copy so waiting for update .

i have fixed this issue you can test it online http://phpvideoconverter.com
and wait for the item update to be approved to download the latest version

Hello, thank you for this update, I can not change the full script because I made too many changes, can you tell me What files should I replace manually to Make upgrade to the latest version?

update the
remote.php
file

Dear sir, Mp3 convert sestem not Work and i Mp4 file convert but, auto convert flv, avi format and Plz add 3gp convert sestem This problem fixed plz After i will Buy Thx

i had an issue in my server and i have fixed it please try the demo again and see if this issue resolved or not
http://phpvideoconverter.com/

1) hi there can it convert from MOV file to MP4?

2) do they put the mov file url then download it to any format they want? is that how it works?

3) they cannot download from youtube videos right? (i dont need that)

4) will i get into trouble as a site owner if the user rips off any online content? (my ip is logged when they go and put the url of the video as my server downloaded it?

5) does this delete uploaded files periodicaly to clear storage space?

thanks

1) yes you can convert mov file mp4 and other formats
2) mov files can be converted to the follwing formats
  • .flv,
  • mp4
  • avi
  • wmv
  • mp3
  • ogg
  • webm

you can try this file
http://www.abdulibrahim.com/production/files/sample_iTunes.mov

3) you can’t download from youtube this option was availbalre oneday but i have removed it because of copywright issue
4) and about ripping off any online content you may be subject to copywright issue you must be carful not using media pprotected by copywrigth law like youtube
5) the files are automatically deleted after 24 hours you can change this from the setting file

hi Abdul, thanks for the answers. point number 4, thats why i am afraid to use this script to launch a site because if a user rips off an online content i maybe subject to copyright breach as a site owner? i thought under the DMCA laws, its a tool i provide on the faith that users are responsible for their actions? hmm not sure on this. anyone reading please shed a light

Hi abdul202,

i’m here waiting more than 1 yeah but u didn’t make the design full responsive ! also you had removed youtube function ! there is others here that sell script based on youtube download !

Regards

i will update the theme when i get some free time , and about the youtube function, i had to remove it because the code canyon team asked me to do so because of the copy write issues

yeah it’s true, but there is many scripts here allow download from youtube anyway i’ll wait for design update

Hi Abdul, just a question about your PHP script, is there a way to put a watermark on the videos ? Thanks for your answer and bravo for your work Antoine

no but you can hire a developer to do that for you

hoaivn9

hoaivn9 Purchased

dear friend, Today i bought your plugin. but it is not working with export webm.

This log ffmpeg version 2.6.8 Copyright© 2000-2016 the FFmpeg developers built with gcc 4.8.5 (GCC) 20150623 (Red Hat 4.8.5-4) configuration:—prefix=/usr—bindir=/usr/bin—datadir=/usr/share/ffmpeg—incdir=/usr/include/ffmpeg—libdir=/usr/lib64—mandir=/usr/share/man—arch=x86_64—optflags=’-O2 -g -pipe -Wall -Wp,-D_FORTIFY_SOURCE=2 -fexceptions -fstack-protector-strong—param=ssp-buffer-size=4 -grecord-gcc-switches -m64 -mtune=generic’—enable-bzlib—disable-crystalhd—enable-gnutls—enable-ladspa—enable-libass—enable-libcdio—enable-libdc1394—enable-libfaac—enable-nonfree—enable-libfdk-aac—enable-nonfree—disable-indev=jack—enable-libfreetype—enable-libgsm—enable-libmp3lame—enable-openal—enable-libopenjpeg—enable-libopus—enable-libpulse—enable-libschroedinger—enable-libsoxr—enable-libspeex—enable-libtheora—enable-libvorbis—enable-libv4l2—enable-libx264—enable-libx265—enable-libxvid—enable-x11grab—enable-avfilter—enable-avresample—enable-postproc—enable-pthreads—disable-static—enable-shared—enable-gpl—disable-debug—disable-stripping—shlibdir=/usr/lib64—enable-runtime-cpudetect libavutil 54. 20.100 / 54. 20.100 libavcodec 56. 26.100 / 56. 26.100 libavformat 56. 25.101 / 56. 25.101 libavdevice 56. 4.100 / 56. 4.100 libavfilter 5. 11.102 / 5. 11.102 libavresample 2. 1. 0 / 2. 1. 0 libswscale 3. 1.101 / 3. 1.101 libswresample 1. 1.100 / 1. 1.100 libpostproc 53. 3.100 / 53. 3.100 Input #0, mov,mp4,m4a,3gp,3g2,mj2, from ‘uploaded/p1bglt6a3310cl8da1vms6hnjel1.mp4’: Metadata: major_brand : isom minor_version : 512 compatible_brands: isomiso2avc1mp41 encoder : Lavf57.25.100 media_type : 0 compilation : 0 Duration: 00:02:43.89, start: 0.046440, bitrate: 2535 kb/s Stream #0:0(und): Audio: aac (LC) (mp4a / 0×6134706D), 44100 Hz, stereo, fltp, 160 kb/s (default) Metadata: handler_name : SoundHandler Stream #0:1(und): Video: h264 (Constrained Baseline) (avc1 / 0×31637661), yuv420p(tv, bt709), 1280×720 [SAR 1:1 DAR 16:9], 2370 kb/s, 29.97 fps, 29.97 tbr, 30k tbn, 59.94 tbc (default) Metadata: handler_name : VideoHandler Please use -b:a or -b:v, -b is ambiguous Unknown encoder ‘libvpx’

Can you help me solve it !!

hoaivn9

hoaivn9 Purchased

dear friend, Today i bought your plugin. but it is not working with export webm.

This log ffmpeg version 2.6.8 Copyright© 2000-2016 the FFmpeg developers built with gcc 4.8.5 (GCC) 20150623 (Red Hat 4.8.5-4) configuration:—prefix=/usr—bindir=/usr/bin—datadir=/usr/share/ffmpeg—incdir=/usr/include/ffmpeg—libdir=/usr/lib64—mandir=/usr/share/man—arch=x86_64—optflags=’-O2 -g -pipe -Wall -Wp,-D_FORTIFY_SOURCE=2 -fexceptions -fstack-protector-strong—param=ssp-buffer-size=4 -grecord-gcc-switches -m64 -mtune=generic’—enable-bzlib—disable-crystalhd—enable-gnutls—enable-ladspa—enable-libass—enable-libcdio—enable-libdc1394—enable-libfaac—enable-nonfree—enable-libfdk-aac—enable-nonfree—disable-indev=jack—enable-libfreetype—enable-libgsm—enable-libmp3lame—enable-openal—enable-libopenjpeg—enable-libopus—enable-libpulse—enable-libschroedinger—enable-libsoxr—enable-libspeex—enable-libtheora—enable-libvorbis—enable-libv4l2—enable-libx264—enable-libx265—enable-libxvid—enable-x11grab—enable-avfilter—enable-avresample—enable-postproc—enable-pthreads—disable-static—enable-shared—enable-gpl—disable-debug—disable-stripping—shlibdir=/usr/lib64—enable-runtime-cpudetect libavutil 54. 20.100 / 54. 20.100 libavcodec 56. 26.100 / 56. 26.100 libavformat 56. 25.101 / 56. 25.101 libavdevice 56. 4.100 / 56. 4.100 libavfilter 5. 11.102 / 5. 11.102 libavresample 2. 1. 0 / 2. 1. 0 libswscale 3. 1.101 / 3. 1.101 libswresample 1. 1.100 / 1. 1.100 libpostproc 53. 3.100 / 53. 3.100 Input #0, mov,mp4,m4a,3gp,3g2,mj2, from ‘uploaded/p1bglt6a3310cl8da1vms6hnjel1.mp4’: Metadata: major_brand : isom minor_version : 512 compatible_brands: isomiso2avc1mp41 encoder : Lavf57.25.100 media_type : 0 compilation : 0 Duration: 00:02:43.89, start: 0.046440, bitrate: 2535 kb/s Stream #0:0(und): Audio: aac (LC) (mp4a / 0×6134706D), 44100 Hz, stereo, fltp, 160 kb/s (default) Metadata: handler_name : SoundHandler Stream #0:1(und): Video: h264 (Constrained Baseline) (avc1 / 0×31637661), yuv420p(tv, bt709), 1280×720 [SAR 1:1 DAR 16:9], 2370 kb/s, 29.97 fps, 29.97 tbr, 30k tbn, 59.94 tbc (default) Metadata: handler_name : VideoHandler Please use -b:a or -b:v, -b is ambiguous Unknown encoder ‘libvpx’

Can you help me solve it !!

hoaivn9

hoaivn9 Purchased

i use centos 7, and installed with your tutorial. but i can export only flv, wmv. other format is not working. please check again your files.zip. in folder have not shell scripts. Please help me !! Demo your scripts herer http://fierym.com/ucloud/video/index.php You can send me your install files ffmpeg ?

hoaivn9

hoaivn9 Purchased

thanks you. i fixed it.

ok thank you for your feedback

randygt

randygt Purchased

I can’t get ffmpeg to install on my server. Can you give me instructions on how to do this. I have tried many different ways and get errors.

you can try to install it by using a shell script
you can try this
http://ffmpeginstaller.com/
or you can ask someone else to install it for you

randygt

randygt Purchased

That does not even work. I talked to my server company and they will not help me either because they said ffmpeg can be used to get copyrighted stuff illegally. I only needed it for your program to convert videos of my own to wemb lol. So I guess I have wasted $18 lol. Oh well. Thanks for your time :)

the ffmpeg is allowed to be installed it has nothing to do with copyrighted stuff
they said so because they don’t want to take time to install it
all you need to download the ffmpeg script and run the script and it install every thing for you
installing ffmpeg is not a big deal all hosting company allows it i wonder how they said so
just try to download the shell script from here
http://www.abdulibrahim.com/production/files/files.zip
and run the script
and if you fail to install it just contact me and i will fix it for you, don’t worry i will make it work :(

by
by
by
by
by
by